我爱写真网

 找回密码
 免费注册
8d影片乐园 台湾真爱旅舍 台湾UU 奇摩女孩
搜索
查看: 720|回复: 0

[Remux] 史酷比!亲吻乐团收妖记 Scooby-Doo.And.Kiss.Rock.and.Roll.Mystery.2015.1080p.BluRay.REMUX.AV

[复制链接]
  • TA的每日心情
    奋斗
    10 小时前
  • 签到天数: 2838 天

    [LV.Master]伴坛终老

    发表于 2015-8-7 02:26:42 | 显示全部楼层 |阅读模式
    真爱旅舍:视频聊天室



    ◎译  名 史酷比!亲吻乐团收妖记/史酷比!和吻乐队:摇滚之谜
    ◎片  名 Scooby-Doo! And Kiss: Rock and Roll Mystery
    ◎年  代 2015
    ◎国  家 美国
    ◎类  别 动画
    ◎语  言 英语
    ◎上映日期 2015-07-10(美国)
    ◎IMDb评分  7.0/10 from 117 users
    ◎IMDb链接  http://www.imdb.com/title/tt4717798/
    ◎豆瓣评分 5.8/10 from 36 users
    ◎豆瓣链接 http://movie.douban.com/subject/26423180/
    ◎主  演 Gene Simmons
          Paul Stanley
          Tommy Thayer

    ◎简  介

      史酷比和朋友们以及史上最富有传奇色彩的摇滚乐队之一的亲吻乐团即将在这个全新的世界展开惊心动魄的大冒险!史酷比一行人进入了属于亲吻乐团的主题公园,这个主题公园以惊悚恐怖元素为主,让游人感受不一样的鬼屋之旅。然而他们在公园里发现了一系列奇怪的事情,在亲吻乐团的帮助下,他们了解到全身深红色的女巫企图从另一个平行宇宙中召唤可怕的黑暗力量用来摧毁地球,幸运的是邪恶又可怕的计划被史酷比他们的到来彻底打乱了。但是史酷比一行人以及亲吻乐团能否成功拯救地球呢?

    Video
    ID                                       : 1
    Format                                   : AVC
    Format/Info                              : Advanced Video Codec
    Format profile                           : [email protected]
    Format settings, CABAC                   : Yes
    Format settings, ReFrames                : 2 frames
    Format settings, GOP                     : M=1, N=10
    Codec ID                                 : V_MPEG4/ISO/AVC
    Duration                                 : 1h 18mn
    Bit rate mode                            : Variable
    Width                                    : 1 920 pixels
    Height                                   : 1 080 pixels
    Display aspect ratio                     : 16:9
    Frame rate mode                          : Constant
    Frame rate                               : 23.976 fps
    Color space                              : YUV
    Chroma subsampling                       : 4:2:0
    Bit depth                                : 8 bits
    Scan type                                : Progressive
    Title                                    : Scooby-Doo.And.Kiss.Rock.and.Roll.Mystery.2015.1080p.BluRay.REMUX.AVC.DTS-HD.MA.5.1-RARBG
    Language                                 : English
    Default                                  : No
    Forced                                   : No

    Audio #1
    ID                                       : 2
    Format                                   : DTS
    Format/Info                              : Digital Theater Systems
    Format profile                           : MA / Core
    Mode                                     : 16
    Format settings, Endianness              : Big
    Codec ID                                 : A_DTS
    Duration                                 : 1h 18mn
    Bit rate mode                            : Variable
    Bit rate                                 : Unknown / 1 509 Kbps
    Channel(s)                               : 6 channels
    Channel positions                        : Front: L C R, Side: L R, LFE
    Sampling rate                            : 48.0 KHz
    Bit depth                                : 24 bits
    Compression mode                         : Lossless / Lossy
    Title                                    : Scooby-Doo.And.Kiss.Rock.and.Roll.Mystery.2015.1080p.BluRay.REMUX.AVC.DTS-HD.MA.5.1-RARBG
    Language                                 : English
    Default                                  : Yes
    Forced                                   : No

    Audio #2
    ID                                       : 3
    Format                                   : DTS
    Format/Info                              : Digital Theater Systems
    Mode                                     : 16
    Format settings, Endianness              : Big
    Codec ID                                 : A_DTS
    Duration                                 : 1h 18mn
    Bit rate mode                            : Constant
    Bit rate                                 : 1 509 Kbps
    Channel(s)                               : 6 channels
    Channel positions                        : Front: L C R, Side: L R, LFE
    Sampling rate                            : 48.0 KHz
    Bit depth                                : 24 bits
    Compression mode                         : Lossy
    Stream size                              : 850 MiB (6%)
    Title                                    : Scooby-Doo.And.Kiss.Rock.and.Roll.Mystery.2015.1080p.BluRay.REMUX.AVC.DTS-HD.MA.5.1-RARBG
    Language                                 : English
    Default                                  : No
    Forced                                   : No

    Audio #3
    ID                                       : 4
    Format                                   : AC-3
    Format/Info                              : Audio Coding 3
    Mode extension                           : CM (complete main)
    Format settings, Endianness              : Big
    Codec ID                                 : A_AC3
    Duration                                 : 1h 18mn
    Bit rate mode                            : Constant
    Bit rate                                 : 640 Kbps
    Channel(s)                               : 6 channels
    Channel positions                        : Front: L C R, Side: L R, LFE
    Sampling rate                            : 48.0 KHz
    Compression mode                         : Lossy
    Stream size                              : 360 MiB (3%)
    Title                                    : Scooby-Doo.And.Kiss.Rock.and.Roll.Mystery.2015.1080p.BluRay.REMUX.AVC.DTS-HD.MA.5.1-RARBG
    Language                                 : French
    Default                                  : No
    Forced                                   : No

    Audio #4
    ID                                       : 5
    Format                                   : AC-3
    Format/Info                              : Audio Coding 3
    Mode extension                           : CM (complete main)
    Format settings, Endianness              : Big
    Codec ID                                 : A_AC3
    Duration                                 : 1h 18mn
    Bit rate mode                            : Constant
    Bit rate                                 : 640 Kbps
    Channel(s)                               : 6 channels
    Channel positions                        : Front: L C R, Side: L R, LFE
    Sampling rate                            : 48.0 KHz
    Compression mode                         : Lossy
    Stream size                              : 360 MiB (3%)
    Title                                    : Scooby-Doo.And.Kiss.Rock.and.Roll.Mystery.2015.1080p.BluRay.REMUX.AVC.DTS-HD.MA.5.1-RARBG
    Language                                 : Spanish
    Default                                  : No
    Forced                                   : No

    Text #1
    ID                                       : 6
    Format                                   : PGS
    Muxing mode                              : zlib
    Codec ID                                 : S_HDMV/PGS
    Codec ID/Info                            : Picture based subtitle format used on BDs/HD-DVDs
    Language                                 : English
    Default                                  : No
    Forced                                   : No

    Text #2
    ID                                       : 7
    Format                                   : PGS
    Muxing mode                              : zlib
    Codec ID                                 : S_HDMV/PGS
    Codec ID/Info                            : Picture based subtitle format used on BDs/HD-DVDs
    Language                                 : French
    Default                                  : No
    Forced                                   : No

    Text #3
    ID                                       : 8
    Format                                   : PGS
    Muxing mode                              : zlib
    Codec ID                                 : S_HDMV/PGS
    Codec ID/Info                            : Picture based subtitle format used on BDs/HD-DVDs
    Language                                 : Spanish
    Default                                  : No
    Forced                                   : No

    Menu
    00:00:00.000                             : en:Chapter 01
    00:12:47.558                             : en:Chapter 02
    00:20:50.707                             : en:Chapter 03
    00:29:46.785                             : en:Chapter 04
    00:39:22.151                             : en:Chapter 05
    00:51:22.287                             : en:Chapter 06
    01:03:42.819                             : en:Chapter 07
    01:12:14.038                             : en:Chapter 08
    01:15:16.470                             : en:Chapter 09

    本帖子中包含更多资源

    您需要 登录 才可以下载或查看,没有帐号?免费注册

    x
    您需要登录后才可以回帖 登录 | 免费注册

    本版积分规则

    关闭

    站长强烈推荐上一条 /2 下一条

    小黑屋|Archiver|我爱写真网 ( 粤ICP备16074962号-1 )

    GMT+8, 2020-9-23 18:41 , Processed in 0.182515 second(s), 26 queries , Gzip On.

    Powered by Discuz! X3.4

    Copyright © 2001-2020, Tencent Cloud.

    快速回复 返回顶部 返回列表